<?xml version="1.0" standalone="no"?>
<!DOCTYPE svg PUBLIC "-//W3C//DTD SVG 1.1//EN" "http://www.w3.org/Graphics/SVG/1.1/DTD/svg11.dtd">
<svg xmlns="http://www.w3.org/2000/svg">
<metadata>Copyright (C) 2019 by original authors @ fontello.com</metadata>
<defs>
<font id="ltx-bubulla" horiz-adv-x="1000" >
<font-face font-family="ltx-bubulla" font-weight="400" font-stretch="normal" units-per-em="1000" ascent="850" descent="-150" />
<missing-glyph horiz-adv-x="1000" />
<glyph glyph-name="top" unicode="&#xe800;" d="M207 365c0-88 20-176 59-255v-231c0-16 13-29 29-29h352c16 0 29 13 29 29v167c5 5 13 14 27 27 58 59 90 137 90 220 0 46-21 89-59 117 0 0 0 1 0 1v351c0 49-39 88-87 88s-88-39-88-88v-93c-10 4-19 5-30 5-40 0-75-28-85-65-10 4-21 6-32 6-40 0-74-28-85-65-10 4-21 6-32 6-48 0-88-39-88-88v-103z m454-250c-10-10-19-19-25-26-14-14-19-19-19-31v-149h-293v208c0 4-1 9-3 13-30 61-49 128-54 196 9-3 18-4 28-4 22 0 43 8 59 22 15-14 36-22 58-22 18 0 35 5 49 15 15-24 35-44 61-57-49-37-81-96-81-162 0-17 14-30 30-30s29 13 29 30c0 80 66 146 147 146 16 0 29 13 29 29s-13 30-29 30c-14 0-47 0-59 0-38 0-71 24-83 58h142c48 0 87-40 87-88 0-67-26-131-73-178z m-44 647c0 16 13 29 30 29s29-13 29-29v-325c-10 2-20 3-30 3h-29c0 33 0 283 0 322z m-117-176c0 17 13 30 29 30s30-13 30-30v-146h-59c0 34 0 119 0 146z m-117-59c0 16 13 29 29 29s29-13 29-29v-117c0-17-13-30-29-30s-29 13-29 30c0 14 0 103 0 117z m-88-29c16 0 29-14 29-30v-58c0-17-13-30-29-30s-29 13-29 30v58c0 16 13 30 29 30z" horiz-adv-x="1000" />

<glyph glyph-name="newsletter" unicode="&#xe801;" d="M995 410l-108 104v126c0 45-36 81-80 81h-136l-79 76c-6 6-16 6-23 0l-79-76h-200c-44 0-80-36-80-81v-64c0-9 7-16 16-16h48v-46l-108-104c-3-3-5-7-5-12v-484c0-8 8-16 16-16h807c9 0 16 8 16 16v484c0 5-2 9-5 12l0 0z m-108 59l57-54h-57v54z m0-87h47l-47-33v33z m-129 194v64c0 27 22 49 49 49s48-22 48-49v-315l-274-197-274 197v235h435c9 0 16 7 16 16z m-177 187l44-42h-88l44 42z m-339-171v48c0 27 22 49 48 49h452c-10-14-16-31-16-49v-48h-484z m32-123v-54h-56l56 54z m0-87v-33l-47 33h47z m-80-15l311-225-311-198v423z m39-436l301 191 37-27c6-4 14-4 19 0l37 27 301-191h-695z m735 13l-312 198 312 225v-423z m-565 471h323v-33h-323v33z m0 64h323v-32h-323v32z m0-129h323v-32h-323v32z m-403 242h161v-32h-161v32z m48-65h178v-32h-178v32z" horiz-adv-x="1000" />

<glyph glyph-name="responsive" unicode="&#xe802;" d="M932 759h-773c-38 0-68-29-68-68v-227c0-14 9-23 23-23s22 9 22 23v227c0 14 10 23 23 23h773c14 0 23-9 23-23v-545c0-14-9-23-23-23h-546c-13 0-22-9-22-23s9-23 22-23h46v-68c0-14-9-23-23-23h-23c-13 0-22-9-22-22s9-23 22-23h319c13 0 22 9 22 23s-9 22-22 22h-23c-14 0-23 9-23 23v68h273c39 0 68 30 68 69v545c0 39-29 68-68 68z m-459-773c2 7 4 14 4 23v68h137v-68c0-9 2-16 4-23h-145z m413 273h-500c-13 0-22-9-22-23s9-22 22-22h500c14 0 23 9 23 22s-9 23-23 23z m-636 137h-182c-38 0-68-30-68-69v-318c0-39 30-68 68-68h182c39 0 68 29 68 68v318c0 39-29 69-68 69z m23-387c0-14-9-23-23-23h-182c-13 0-22 9-22 23v318c0 14 9 23 22 23h182c14 0 23-9 23-23v-318z" horiz-adv-x="1000" />

<glyph glyph-name="settings" unicode="&#xe803;" d="M642 130c-10 6-21 13-32 19 3 21 3 43 0 65 11 6 22 12 32 19 18 10 25 33 17 52 0 0 0 0 0 0l-23 55c-7 19-28 30-48 25-12-3-24-6-36-9-14 17-29 32-46 46 3 12 6 24 9 36 5 20-6 41-25 48l-55 23c-19 8-42 1-52-17-7-10-13-21-19-32-22 3-44 3-65 0-6 11-13 22-19 32-11 18-33 25-52 17l-56-23c-19-7-29-28-24-48 3-12 6-24 9-36-17-14-32-29-46-46-12 3-24 6-36 9-20 5-41-6-49-25l-23-55c-8-19 0-42 17-52 11-7 22-13 32-19-2-22-2-44 0-65-10-6-21-13-32-19-17-11-25-33-17-52l23-56c8-19 29-29 49-24 12 3 24 6 36 9 14-17 29-33 46-46-3-12-6-24-9-36-5-20 5-41 24-49l56-23c5-2 10-3 16-3 14 0 28 7 36 20 6 11 12 21 19 32 21-2 43-2 65 0 6-11 12-21 19-32 10-17 33-25 52-17l55 23c19 8 30 29 25 49-3 12-6 24-9 36 17 13 32 29 46 46 12-3 24-6 36-9 20-5 41 5 48 24l23 56c8 19 1 41-17 52z m-46-88c-11 3-23 6-35 9-16 4-33-2-44-15-11-15-25-29-41-41-13-10-19-28-14-44 3-12 6-23 9-34l-51-22c-6 11-12 21-18 31-9 15-25 23-42 21-19-2-38-2-58 0-16 2-33-6-41-21-6-10-12-21-18-31l-51 22c3 11 6 23 9 34 4 16-2 34-15 44-15 12-29 26-41 41-10 13-27 19-44 15-11-3-23-6-34-9l-22 51c11 6 21 12 31 18 15 8 23 25 21 41-2 20-2 39 0 58 2 17-6 33-21 42-10 6-20 12-31 18l22 51c11-3 23-6 34-9 17-5 34 1 44 14 12 16 26 30 41 41 13 11 19 28 15 44-3 12-6 24-9 35l51 21c6-10 12-20 18-31 8-14 25-23 41-20 20 2 39 2 58 0 17-3 33 6 42 20 6 11 12 21 18 31l51-21c-3-11-6-23-9-35-5-16 1-33 14-44 16-11 30-25 41-41 11-13 28-19 44-14 12 3 24 6 35 9l21-51c-10-6-20-12-31-18-14-9-23-25-20-42 2-19 2-38 0-58-3-16 6-33 20-41 11-6 21-12 31-18l-21-51z m-124 198c0 0 0 0 0 0-32 77-121 114-199 82-78-32-115-121-83-199 16-38 45-67 83-83 19-7 39-11 58-11s40 4 59 11c77 33 114 122 82 200z m-99-158c-27-11-56-11-83 0-27 11-47 31-58 58-23 55 3 118 58 141 14 5 27 8 41 8 42 0 83-25 100-66 23-55-4-119-58-141z m597 571c-8 1-16 2-24 3-4 14-9 27-16 39 5 6 10 13 15 19 10 14 8 34-4 46l-31 31c-12 12-32 14-46 4-6-5-13-10-19-15-12 7-25 12-39 16-1 8-2 16-3 24-3 17-18 30-35 30h-44c-17 0-32-13-35-30-1-8-2-16-3-24-14-4-27-9-39-16-6 5-13 10-19 15-14 10-34 8-46-4l-31-31c-12-12-14-32-4-46 5-6 10-13 15-19-7-12-12-25-16-39-8-1-16-2-24-3-17-3-30-18-30-35v-44c0-17 13-32 30-35 8-1 16-2 24-3 4-14 9-27 16-39-5-6-10-13-15-19-10-14-8-34 4-46l31-31c12-12 32-14 46-4 6 5 13 10 19 15 12-7 25-12 39-16 1-8 2-16 3-24 3-17 18-30 35-30h44c17 0 32 13 35 30 1 8 2 16 3 24 14 4 27 9 39 16 6-5 13-10 19-15 14-10 34-8 46 4l31 31c12 12 14 32 4 46-5 6-10 13-15 19 7 12 12 25 16 39 8 1 16 2 24 3 17 3 30 18 30 35v44c0 17-13 32-30 35z m-12-73c-7-1-15-2-22-3-14-2-26-12-29-25-4-14-9-26-16-38-7-13-6-28 3-39 4-6 8-12 13-17l-23-23c-5 5-11 9-17 13-11 9-26 10-39 3-12-7-24-12-38-16-13-3-23-15-25-29-1-7-2-15-3-22h-32c-1 7-2 15-3 22-2 14-12 26-25 29-14 4-26 9-38 16-13 7-28 6-39-3-6-4-12-8-17-13l-23 23c5 5 9 11 13 17 9 11 10 26 3 39-7 12-12 24-16 38-3 13-15 23-29 25-7 1-15 2-22 3v32c7 1 15 2 22 3 14 2 26 12 29 25 4 14 9 26 16 38 7 13 6 28-3 39-4 6-8 12-13 17l23 23c5-5 11-9 17-13 11-9 26-10 39-3 12 7 24 12 38 16 13 3 23 15 25 29 1 7 2 15 3 22h32c1-7 2-15 3-22 2-14 12-26 25-29 14-4 26-9 38-16 13-7 28-6 39 3 6 4 12 8 17 13l23-23c-5-5-9-11-13-17-9-11-10-26-3-39 7-12 12-24 16-38 3-13 15-23 29-25 7-1 15-2 22-3v-32z m-212 107c-50 0-91-41-91-91 0-50 41-91 91-91s91 41 91 91c0 50-41 91-91 91z m0-141c-28 0-50 22-50 50 0 28 22 50 50 50 28 0 50-22 50-50 0-28-22-50-50-50z" horiz-adv-x="1000" />

<glyph glyph-name="fish" unicode="&#xe804;" d="M828 703c-8-8-8-20 0-28 8-8 20-8 28 0 7 8 7 20 0 28-8 7-20 7-28 0z m0 0m0 147c-115-5-255-59-367-156-71 15-146-7-198-58-23-23-23-61 0-83l63-64c-40-116-48-240-49-303-34 23-75 35-118 35-58 0-112-22-152-63-8-7-8-20 0-27 40-41 94-64 152-64 26 0 51 5 75 14-9-24-14-49-14-75 0-58 23-112 63-152 4-4 9-6 14-6 5 0 10 2 14 6 41 40 63 94 63 152 0 43-12 84-35 118 63 1 187 9 303 49l63-63c23-23 61-23 83 0 52 52 74 127 58 198 86 98 152 237 157 369 2 59-12 110-38 135-26 26-77 40-137 38z m-538-242c36 36 85 54 135 51-33-34-61-78-83-130l-52 51c-7 8-7 20 0 28z m-240-464c31 25 69 38 109 38 40 0 78-13 109-38-31-24-69-37-109-37-40 0-78 13-109 37z m247-247c-24 31-37 69-37 109 0 40 13 78 37 109 25-31 38-69 38-109 0-40-13-78-38-109z m464 241c-8-8-20-8-28 0l-51 51c52 22 96 50 130 83 3-50-15-99-51-134z m203 540c-2-54-17-116-42-175-55-14-114-3-165 29-9 6-21 3-27-6-6-9-3-21 6-27 50-32 109-46 166-40-25-48-55-92-91-132v0c-8-8-15-16-23-23-108-109-318-141-471-140-1 153 31 363 139 472 8 7 16 15 24 22 40 36 84 67 132 91-4-40 2-82 17-122 4-10 16-15 26-10 10 4 15 15 11 25-17 41-20 86-10 127 58 25 120 40 173 42 55 2 94-12 108-27 15-14 28-52 27-106z m0 0m-290-97c-8-7-8-20 0-27 8-8 20-8 28 0 7 7 7 20 0 27-8 8-20 8-28 0z m0 0" horiz-adv-x="1000" />

<glyph glyph-name="right-arrow" unicode="&#xe805;" d="M989 378c0 0 0 0 0 0l-205 203c-15 15-40 15-55 0-15-16-15-40 0-56l137-136h-827c-21 0-39-17-39-39 0-22 18-39 39-39h827l-137-136c-15-16-15-40 0-56 15-15 40-15 55 0l205 203c0 0 0 0 0 0 15 16 15 40 0 56z" horiz-adv-x="1000" />

<glyph glyph-name="certification" unicode="&#xe806;" d="M917 850h-834c-46 0-83-37-83-83v-617c0-46 37-83 83-83h500v-200c0-6 3-11 7-14 5-3 10-4 15-2l95 31 95-31c2-1 3-1 5-1 4 0 7 1 10 3 4 3 7 8 7 14v200h100c46 0 83 37 83 83v617c0 46-37 83-83 83z m50-83v-32c-42 7-75 40-82 82h32c27 0 50-23 50-50z m-884 50h32c-7-42-40-75-82-82v32c0 27 23 50 50 50z m-50-667v32c42-7 75-40 82-82h-32c-27 0-50 22-50 50z m519 203c5 8 10 15 13 24 3 10 4 19 4 28 0 9 0 18 3 21 3 4 11 7 19 10 9 3 18 6 26 12 8 6 14 14 19 20 5 7 10 14 15 16 4 1 13-1 21-3 8-3 18-6 28-6 10 0 20 3 28 6 8 2 17 4 21 3 5-2 10-9 15-16 6-6 12-14 19-20 8-6 18-9 26-12 8-3 16-6 19-10 3-3 3-12 3-21 1-9 1-18 4-28 3-9 8-16 13-24 5-7 10-14 10-20s-5-12-10-19c-5-8-10-15-13-24-3-10-3-20-4-28 0-9 0-18-3-22-3-4-11-7-19-9-8-3-18-6-26-12-7-6-13-14-19-21-5-7-10-14-15-15-4-2-13 1-21 3-8 3-18 6-28 6-10 0-20-3-28-6-8-2-16-5-21-3-5 1-10 8-15 15-5 7-11 15-19 21-8 6-17 9-26 12-8 2-16 5-19 9-3 4-3 13-3 22 0 8-1 18-4 28-3 9-8 16-13 24-5 7-10 14-10 19s5 13 10 20z m153-437c-3 1-7 1-10 0l-78-26v279c6-8 13-15 24-18 14-5 28 0 40 3 7 2 14 4 19 4s12-2 19-4c8-2 17-5 27-5 4 0 9 1 13 2 11 3 18 10 24 18v-279z m112 282c1 0 2 1 3 1 12 4 26 9 35 22 9 12 9 27 10 40 0 7 0 14 2 18 1 5 5 10 9 15 7 11 16 24 16 39s-9 29-16 39c-4 6-8 11-9 15-2 5-2 12-2 19-1 13-1 28-10 40-9 13-23 17-35 22-7 2-13 4-17 7-4 3-8 8-12 14-8 10-17 22-32 27-14 4-28 0-40-4-7-2-14-4-19-4s-12 2-18 4c-13 4-27 8-41 4-15-5-24-17-32-28-4-5-8-10-12-13-4-3-10-5-17-7 0-1-1-1-2-1h-261v-34h222c-3-9-3-18-4-27 0-7 0-14-1-19-2-4-5-9-9-15-8-10-17-23-17-39s9-28 17-39c3-5 7-10 9-15 1-4 1-11 1-18 1-13 1-28 10-40 9-13 23-18 35-22 1 0 2-1 3-1v-98h-434c-8 60-55 108-116 116v485c61 8 108 56 116 116h702c8-60 56-108 116-116v-485c-60-8-108-56-116-116h-34z m100-98h-32c7 42 40 75 82 82v-32c0-28-23-50-50-50z m0 0m-217 117c64 0 117 52 117 116s-53 117-117 117-117-52-117-117 53-116 117-116z m0 200c46 0 83-38 83-84s-37-83-83-83c-46 0-83 37-83 83s37 84 83 84z m0 0m-500 300h600v-34h-600z m0 0m100-84h400v-33h-400z m0 0m-183-333h333v-33h-333z m0 0m66-83h200v-34h-200z m0 0m534-100h33v-34h-33z m0 0m0-67h33v-33h-33z m0 0m0-67h33v-33h-33z m0 0" horiz-adv-x="1000" />

<glyph glyph-name="cleaver-knife" unicode="&#xe807;" d="M215 188c-7-6-7-16 0-22 6-6 16-6 22 0 6 6 6 16 0 22-6 7-16 7-22 0z m-65-65c-7-6-7-16 0-22 6-6 16-6 22 0 6 6 6 16 0 22-6 7-16 7-22 0z m845 427l-240 240c-6 6-16 6-23 0l-708-709c-16-15-24-35-24-57s8-42 24-57l38-38c15-16 36-24 56-24 21 0 42 8 57 24l31 30c3 3 4 7 4 12 0 4-1 8-4 11-9 9-14 21-14 34 0 13 5 26 14 35l73 73c6 6 6 16 0 22-6 7-16 7-23 0l-73-73c-15-15-23-35-23-57 0-16 4-31 13-44l-20-20c-19-19-50-19-69 0l-38 38c-9 9-14 21-14 34 0 13 5 25 14 34l184 184 229-229c5-6 14-6 21-1 96 74 189 155 275 241 86 86 168 179 242 276 5 6 4 15-2 21z m-262-274c-82-82-170-160-262-231l-219 219 492 492 219-219c-71-92-148-179-230-261z m-313-109c-7-6-8-16-2-23 3-4 8-6 12-6 4 0 7 1 10 4 78 63 154 130 225 201 71 71 139 147 202 225 5 7 4 17-3 22-7 6-17 5-22-2-62-77-129-152-200-222-70-70-144-137-222-199z" horiz-adv-x="1000" />

<glyph glyph-name="pig" unicode="&#xe808;" d="M958 443a99 99 0 0 0-58 52l-21 46a208 208 0 0 1-12 21 109 109 0 0 1 38 35l14 21a16 16 0 0 1-7 23l-29 12c-35 15-73 13-104-6l-5-3a209 209 0 0 1-86 19h-447a210 210 0 0 1-210-204h0c0 0 0-1 0-2 0-1 0-3 0-4a210 210 0 0 1 51-136 56 56 0 0 0-7-79l-38-32a16 16 0 0 1-5-17l47-141a16 16 0 0 1 15-10h62a16 16 0 0 1 16 17l-13 92h16c4 0 8 0 12 0l1-2a16 16 0 0 1 1-5l47-94a16 16 0 0 1 14-8h63a16 16 0 0 1 15 18l-13 76a203 203 0 0 1 126 59l3 3a385 385 0 0 1 40 1v-48a16 16 0 0 1 1-5l31-94a16 16 0 0 1 15-10h78a16 16 0 0 1 16 18l-15 89 9 19 7-22a16 16 0 0 1 2-4l62-93a16 16 0 0 1 13-7h78a16 16 0 0 1 15 21l-46 122v73a164 164 0 0 1 130 48l19 18 58 15a16 16 0 0 1 12 15v78a16 16 0 0 1-11 15z m-87 181l12-5-4-5a78 78 0 0 0-30-26 211 211 0 0 1-42 38c20 8 43 7 64-2z m-574-461a16 16 0 0 1-15-19l12-75h-34l-42 83 0 0a178 178 0 0 1 101 69l1 0a377 377 0 0 1 82-23 172 172 0 0 0-105-35z m281-19l13-75h-48l-27 80v49a379 379 0 0 1 84 22l4-12-24-55a16 16 0 0 1-2-9z m360 218l-51-12a16 16 0 0 1-7-5l-22-21a133 133 0 0 0-121-37 16 16 0 0 1-18-15v-94a16 16 0 0 1 1-5l39-104h-47l-57 85-31 91-15 62-30-8 12-49a351 351 0 0 0-256-2 201 201 0 0 1 20 52l-31 7a170 170 0 0 0-24-58l0 0c-1 0-1 0-1 0a146 146 0 0 0-124-71h-34a16 16 0 0 1-16-18l13-91h-33l-40 120 30 25a87 87 0 0 1 10 123 178 178 0 0 0-38 77 47 47 0 0 1 58 45v16a16 16 0 0 0 31 0v-31h32v31a47 47 0 0 1-94 0v-16a16 16 0 0 0-31-1 179 179 0 0 0 178 173h447a179 179 0 0 0 162-103l21-46a130 130 0 0 1 67-65z m-150 151a16 16 0 0 1 6 24l-22 27a133 133 0 0 1-105 52h-28v-32h28a102 102 0 0 0 81-39l9-11-8-4a101 101 0 0 0-113 23l-22-22a132 132 0 0 1 148-29z" horiz-adv-x="1000" />

<glyph glyph-name="favorites" unicode="&#xe809;" d="M922 456c18 18 25 44 17 68-8 24-28 41-53 45l-219 31c-4 1-8 4-10 8l-98 198c-11 23-34 37-59 37-25 0-48-14-59-37l-98-198c-2-4-6-7-10-8l-219-31c-25-4-45-21-53-45-8-24-1-50 17-68l158-154c3-3 5-8 4-12l-37-218c-5-25 5-49 26-64 20-15 47-17 69-5l196 103c4 2 8 2 12 0l196-103c10-6 20-8 31-8 13 0 27 4 38 13 21 15 31 39 27 64l-38 218c-1 4 1 9 4 12l158 154z m-214-175l38-218c1-7-4-11-6-13-2-1-7-4-14-1l-195 103c-10 5-20 8-31 8-10 0-21-3-31-8l-195-103c-7-3-12 0-14 1-2 2-7 6-5 13l37 218c4 22-4 43-19 59l-158 154c-6 5-4 11-4 13 1 3 4 8 11 9l219 32c21 3 40 17 49 36l98 198c4 7 10 8 12 8 3 0 9-1 12-8v0l98-198c9-19 28-33 49-36l219-32c8-1 10-6 11-9 1-2 2-8-3-13l-159-154c-15-16-22-37-19-59z m100 525c-12 8-28 6-37-6l-28-39c-8-11-6-28 6-36 5-4 10-5 16-5 8 0 16 3 21 10l28 39c9 12 6 28-6 37z m-551-44l-28 38c-9 12-25 15-37 6-12-9-15-25-6-37l28-38c5-7 13-11 21-11 6 0 11 1 16 5 12 8 14 25 6 37z m-160-511c-5 14-20 21-33 17l-46-15c-14-5-21-19-17-33 4-11 14-18 25-18 3 0 6 0 9 1l45 15c14 4 21 19 17 33z m403-293c-15 0-26-12-26-27v-47c0-15 11-27 26-27 15 0 26 12 26 27v47c0 15-11 27-26 27z m482 295l-45 15c-14 4-29-3-34-17-4-14 3-29 17-34l46-14c2-1 5-2 8-2 11 0 21 8 25 19 4 14-3 28-17 33z" horiz-adv-x="1000" />

<glyph glyph-name="horse-head" unicode="&#xe80a;" d="M999 714c-3 9-11 15-21 15h-173c-66 57-151 92-238 98-147 10-292-11-430-61l-122-45c-12-4-18-17-14-28 4-9 12-14 21-14 3 0 5 0 8 1l122 44c132 49 271 68 412 59 59-4 117-23 167-54-11-1-19-11-19-22 0-12 10-22 22-22h175l-35-24c-34-24-77-30-116-16-11 5-24-1-28-13-4-11 2-24 13-28 19-7 39-10 58-10 11 0 21 1 32 3l-27-546c0-1 0-2 0-2-36 5-72-10-92-41-6-10-4-23 6-30 4-3 8-4 13-4 7 0 14 4 18 10 9 14 25 22 42 22-12-21-32-37-55-45l-19-7c-3-1-6-2-9-2l-24 95c-3 11-15 18-26 16-12-3-19-15-16-27l17-69-18 10c-13 7-20 23-17 38 6 24 4 50-4 74l-49 137c6-1 12-2 18-2l99-7c0 0 1 0 1 0 12 0 21 9 22 21 1 12-8 22-20 23l-99 7c-64 4-95 51-102 91-7 39 6 94 64 120l88 40c11 5 16 18 11 29-5 11-18 16-29 11l-88-40c-29-12-52-32-68-56-39-11-197-59-304-155-9-8-10-22-2-31 4-5 10-7 16-7 5 0 11 2 15 5 80 72 194 116 254 135-3-19-4-39 0-59 2-13 6-26 12-39-8-24-34-97-73-175-61-122-125-199-186-224-12-4-17-17-12-28 3-9 11-14 20-14 3 0 5 0 8 1 138 56 238 299 274 396 1-1 1-2 2-2 8-8 16-15 26-20l61-172c5-16 6-33 3-50-8-34 7-68 37-85l34-19c14-8 31-13 47-13 11 0 21 2 31 6l20 6c34 12 62 36 79 67 11 19 17 41 18 62l28 564c7 4 14 8 21 13l92 64c8 6 11 16 8 25z m-238-328c4-5 10-7 16-7 5 0 10 1 15 5 9 8 9 22 1 31l-29 33c-8 9-22 10-31 2s-10-22-2-31l30-33z" horiz-adv-x="1000" />

<glyph glyph-name="lamb" unicode="&#xe80b;" d="M471 176c-5 0-10-2-14-5-4-4-6-9-6-14s2-10 6-14c4-4 9-6 14-6 5 0 10 2 14 6 3 4 5 9 5 14s-2 10-5 14-9 5-14 5z m355 446c4 3 6 8 6 13s-2 11-6 14c-3 4-8 6-13 6-6 0-11-2-14-6-4-3-6-9-6-14s2-10 6-13c3-4 8-6 14-6 5 0 10 2 13 6z m152-19l-102 92c-20 18-45 28-72 28h-33l-95 69c-5 3-11 4-17 3-6-2-11-7-13-13-1-4-29-89 27-133l-61-61c-14-13-33-21-53-21h-319c-132 0-240-108-240-240 0-56 17-109 49-155l1-1c-2-35 2-63 3-70v-153c0-24 20-43 44-43h46c3 0 6 0 9 1 2-1 4-1 7-1h58c14 0 26 7 33 19 7 12 8 26 1 39l-11 19v75c50 12 84 48 105 80h48c10 0 19 9 19 20s-9 19-19 19h-100c6 12 8 20 9 22 3 10-2 21-13 24-10 4-21-2-24-12-1-1-35-105-120-118h-53v10c0 1 0 3 0 4 0 1-18 109 25 162 7 8 5 20-3 27-9 7-21 6-28-3-13-17-22-37-28-58-12 29-19 61-19 93 0 111 90 201 201 201h319c30 0 59 11 80 32l68 67c7 7 11 16 10 26-1 10-7 18-15 23-24 15-26 45-24 66l75-54c4-3 8-4 12-4h39c17 0 33-6 46-18l102-92c8-8 11-19 7-30l-3-7c-4-11-14-18-26-18h-69c-11 0-19-9-19-19v-72c0-59-20-117-56-164 1 5 2 9 2 13 8 58-2 100-3 101-2 11-13 17-23 14-11-2-17-13-15-23 1-1 10-37 2-88-4-29-12-56-24-82 0-1-1-2-1-3-16-33-38-63-66-90l-62 0c-11 20-36 66-42 98-2 10-13 17-23 15-11-2-18-13-16-23 10-47 51-116 52-119 1-2 3-4 5-6v-119c0-3 0-5 2-8l3-8c9-19 28-31 50-31h32c8 0 16 2 23 6 7-4 16-6 25-6h33c21 0 39 15 42 36 3 16-4 32-16 41l-4 3v88c58 48 96 116 110 195 9 52 5 94 4 105 3 18 5 37 5 55v52h49c28 0 53 17 63 43l2 7c10 26 3 54-17 73z m-796-659c0 6-2 13-5 19l-11 19v72c2-1 3-1 4-1h31v-76c0-3 1-7 2-9l14-24h-35z m90 193h24c-15-17-34-32-58-40 13 13 25 27 34 40z m-145-84v-76c0-3 1-7 3-9l13-24h-46c-3 0-5 2-5 4v105h35z m500-109c-6 0-12 3-14 9l-2 4v110l31 0v-91c0-6 3-12 8-16l11-9c1-1 2-2 2-4 0 0 0-1-1-1 0 0 0 0 0 0 0-1-2-2-3-2h-32z m117 3c-1-2-2-3-5-3h-32c-2 0-3 0-5 1 1 14-5 28-17 37l-4 3v82l42 0v-91c0-6 3-12 7-16l12-9c1-1 2-2 2-4z m-4 159l-29 0c20 24 36 48 47 71l31 31c15 15 29 32 41 50-12-49-37-106-90-152z m-428 377c-3-4-5-9-5-14s2-10 5-14c4-3 9-5 14-5s10 2 14 5 6 9 6 14-2 10-6 14c-4 4-9 6-14 6s-10-2-14-6z m257-14c0 11-8 20-19 20h-146c-10 0-19-9-19-20s9-19 19-19h146c11 0 19 8 19 19z" horiz-adv-x="1000" />

<glyph glyph-name="pig-1" unicode="&#xe80c;" d="M784 452c4 3 6 8 6 13s-2 11-6 14c-3 4-8 6-13 6-6 0-11-2-14-6-4-3-6-8-6-14s2-10 6-13c3-4 8-6 14-6 5 0 10 2 13 6z m197 49c-43 0-84 15-116 41 17 10 40 28 49 53 8 22 5 40 3 55-2 12-4 23-1 37 1 6 0 13-5 17-4 5-10 7-16 7-19-2-34-5-49-10 0 3 0 6 0 9 1 6-2 12-7 16-5 4-11 5-17 4-68-19-93-70-102-98-1-4-4-6-7-5-5 0-10 0-15 0h-390c-91 0-171-50-212-125-17-2-34 3-46 15-7 8-11 17-11 28s4 20 11 27c11 11 28 11 39 0 7-8 20-8 27 0 8 8 8 20 0 28-25 25-67 25-93 0-15-15-23-34-23-55s8-41 23-55c15-15 35-25 55-27-8-24-13-51-13-78 0-27 5-54 14-79 3-10 14-16 24-12 11 3 16 14 12 25-7 21-11 43-11 66 0 112 92 203 204 203h390c4 0 8 0 12 0 21-2 41 11 47 32 7 21 21 47 53 63 1-6 3-12 5-17 0 0 0 0 0 0 0 0 0-1 0-1 4-11 7-19 4-30-1-10-10-22-23-33-8-6-13-16-13-27 0-10 5-20 13-27l42-35c35-29 78-46 123-50v-58l-2-3c-27-46-77-75-131-75-9 0-17-6-19-15-10-42-36-78-71-101-1-1-3-2-4-3-8-3-13-10-13-19l0-149c0-6 3-12 8-16 2-2 6-8 10-15h-42-28c-5 26-17 80-31 120-12 34-18 70-18 105v1c0 11-9 20-20 20s-19-9-19-20v-1c0-17 1-35 4-53h-281c-10 1-19-5-21-15 0 0 0 0 0 0 0 0 0 0 0-1l-22-121c-2-8 2-16 8-20 2-2 6-8 10-15h-1-64c-5 32-16 105-33 166-3 11-14 17-24 14-11-3-17-14-14-24 22-78 34-177 35-178 1-10 9-17 19-17h81 33 85c10 0 19 8 19 19 0 2 0 38-38 61l16 92h124c15-27 34-104 43-156 2-10 10-16 20-16h73 44 74c6 0 12 3 16 8 4 6 4 13 2 19-7 14-18 38-29 51l0 130c0 0 0 0 0 0 39 27 68 65 83 110 62 5 118 40 150 95l4 7c2 3 3 7 3 10v82c0 10-9 19-19 19z m-103 143c2-14 4-23-1-36-6-18-32-33-45-39l-7 6c13 12 29 30 33 53 2 14 1 25-1 35 5 3 11 4 18 6 0-10 2-18 3-25z m-530-622c9-4 15-9 19-13h-44c-6 12-13 27-22 38l18 95h34l-16-99c-2-9 3-18 11-21z m211 120h34c3-9 5-17 8-26 12-34 22-80 28-107h-33c-7 31-20 93-37 133z m-219 359c4 3 6 8 6 13 0 6-2 11-6 14-4 4-9 6-14 6s-10-2-14-6c-3-3-5-8-5-14 0-5 2-10 5-13 4-4 9-6 14-6s10 2 14 6z m279-6c11 0 20 9 20 19s-9 20-20 20h-215c-10 0-19-9-19-20s9-19 19-19h215z m-465-251c0 5-2 10-6 13-4 4-9 6-14 6-5 0-10-2-14-6-3-3-5-8-5-13s2-11 5-14 9-6 14-6c5 0 10 2 14 6 4 3 6 8 6 14z" horiz-adv-x="1000" />

<glyph glyph-name="rabbit" unicode="&#xe80d;" d="M813 450c4 3 6 8 6 13 0 6-2 11-6 14-3 4-8 6-13 6s-11-2-14-6c-4-3-6-8-6-14 0-5 2-10 6-13 3-4 8-6 14-6s10 2 13 6z m-466-73c4 4 6 9 6 14 0 5-2 10-6 14-3 4-8 6-13 6-6 0-11-2-14-6s-6-9-6-14c0-5 2-10 6-14 3-3 8-5 14-5 5 0 10 2 13 5z m168-5c10 0 19 8 19 19s-9 20-19 20h-101c-11 0-20-9-20-20s9-19 20-19h101z m-406 1c5 0 10 2 14 5 3 4 5 9 5 14 0 5-2 10-5 14-4 3-9 6-14 6-5 0-10-3-14-6-4-4-6-9-6-14s2-10 6-14c4-3 9-5 14-5z m890 41c-6 47-29 93-66 130-37 36-83 60-129 65-17 2-32 2-47 0-28 42-130 192-229 210-30 5-58-2-81-20-23-18-33-41-30-67-6-3-12-8-17-13-20-20-28-44-23-69 8-45 57-94 144-148 7-4 13-8 20-11h-235c-49 0-98-12-141-34-10-5-13-17-8-27 3-7 10-10 17-10 3 0 6 0 9 2 38 20 79 30 123 30h308c18-9 30-14 31-15 10-4 22 0 26 10s0 22-10 26c-1 0-60 26-120 63-75 46-120 89-126 121-2 13 2 24 13 35 10 9 21 13 35 12 69-5 171-123 205-168 3-5 8-8 14-8 5-1 11 1 15 5l11 10c0 0 0 0 1 0 46 47 135 35 196-27 31-30 50-68 55-106 4-37-5-69-27-91s-54-31-91-27c-38 5-76 24-106 55-8 7-20 7-28 0-7-8-7-20 0-28 23-22 49-40 76-51l0-2c0-65-42-123-104-142-9-3-15-12-14-22l16-110c1-7 6-13 12-16l35-13c22-8 42-23 55-44 0 0 0 0 0 0 0 0 0 0 0 0 0 0 0 0 0 0h-86c-7 0-13 2-17 7-42 42-74 94-93 151l-24 70c-3 10-14 15-25 12-10-4-15-15-12-25l21-61c-39-13-80-20-121-22 13 20 21 45 21 70 0 70-57 127-128 127h-48c-11 0-19-9-19-20s8-19 19-19h48c49 0 89-40 89-88 0-32-17-62-45-77l-57-33c-6-3-10-9-10-16l0-22c0-5 2-10 5-14 4-3 9-5 14-5h76c14 0 26-9 31-22l5-13h-122c-147 0-267 119-267 266 0 47 12 93 36 134 5 9 2 21-7 26-9 6-21 3-27-7-27-46-41-99-41-153 0-44 10-87 27-125-17-9-27-26-27-45 0-28 23-51 51-51h44c55-52 129-84 211-84h126c11 0 23 5 29 15 7 10 9 23 5 34l-7 17c-10 28-37 47-67 47h-39l30 17c1 0 2 1 3 2h22c52 0 104 8 153 24 22-51 53-99 92-138 12-12 28-18 45-18h86c15 0 28 8 35 21 7 12 6 28-2 40-18 27-44 48-75 59l-23 9-12 83c67 28 112 91 116 164 5-1 10-2 15-3 7-1 14-1 21-1 40 0 75 14 101 40 31 30 45 74 39 122z m-313 162c-13 17-36 43-63 71-61 61-114 93-157 96-4 1-7 1-11 0 1 10 6 17 16 25 14 12 31 16 50 12 71-13 157-123 197-183-12-6-22-13-32-21z m-647-561c0 4 2 8 6 10l0 0c5-7 10-15 15-22h-9c-7 0-12 6-12 12z" horiz-adv-x="1000" />

<glyph glyph-name="chicken" unicode="&#xe80e;" d="M897 710l-33 14 18 38c5 10 4 21-2 31-6 9-16 15-27 15h-13l-11 24c-5 11-16 18-28 18-13 0-24-6-30-17l-9-17-27 16c-10 6-23 6-33 0-10-6-16-17-16-28v-13c-10-2-19-9-24-19-5-12-3-26 6-35l29-30c0-1 0-2-1-3l-18-69c-12-44-36-83-71-114-8-7-8-20-1-28 7-8 19-8 27-1 40 35 69 82 83 133l18 69c6 21 25 36 47 36 16 0 32-9 41-23l2-3c-3-4-4-8-4-12v-22c0-11-9-20-20-20-6 0-12-3-16-8s-4-12-2-18l11-29c32-81 48-166 48-252 0-71-38-136-100-170-4-2-7-5-9-10l-5-13c-26-69-94-115-167-115h-62c0 0-1 0-1 0-61 1-111 51-111 112 0 11-9 20-20 20h-58c-40 0-73 32-73 73 0 11-9 19-20 19-46 0-84 38-84 85v37h122c79 0 158 12 234 36 10 3 16 14 13 25-4 10-15 16-25 12-72-23-147-34-222-34h-142c-11 0-20-9-20-20v-56c0-62 46-114 106-122 9-54 55-94 111-94h40c9-70 65-124 135-131l29-88c-19-2-34-19-34-40 0-10 9-19 19-19 11 0 20 9 20 19 0 1 1 2 1 2h21c0 0 0 0 0 0 0 0 1 0 1 0h19c1 0 2-1 2-2 0-10 9-19 19-19s20 9 20 19c0 1 0 1 0 2h6c0 0 0 0 0 0 0 0 0 0 0 0h20c1 0 1-1 1-2 0-10 9-19 20-19s20 9 20 19c0 23-19 41-41 41h-6l-29 88c33 5 64 17 92 36 37 25 64 60 80 102l3 7c71 42 114 117 114 200 0 91-17 181-50 266l-3 8c19 10 32 30 32 53v3h30c9 0 17 6 19 15 2 9-3 19-11 22z m-327-800c-2 0-3 0-5-1-2 1-3 1-6 1h-6l-28 86h25l29-86h-9z m211 859c-25 0-47-10-63-27l-13 13c4 1 7 4 10 7 6 6 10 14 10 23v7l23-14c7-4 16-5 25-3 8 2 16 8 20 16l6 12 8-16c5-11 17-18 29-18h6l-9-18c-15 11-33 18-52 18z m-459-443c-6 0-12-3-16-8-3-6-4-12-2-18 22-62 79-104 143-107 9-33 39-57 74-57 58 0 110 34 133 86l0 1c8 19 13 38 13 59v93c0 7-4 13-10 17-5 3-12 4-18 1-93-44-197-67-300-67h-17z m305 19v-63c0-15-3-29-8-43l-1-1c-17-38-55-63-97-63-20 0-37 17-37 37 0 11-9 20-20 20h-9c-41 0-79 21-102 55 94 2 188 22 274 58z m76-103c-9-5-13-17-7-27 3-6 10-10 17-10 3 0 6 1 9 3 49 27 80 78 80 134 0 11-9 20-20 20-10 0-19-9-19-20 0-41-23-80-60-100z m72 198c-10-1-18-11-17-22 0 0 0 0 0 0l0-1c1-10 10-17 20-17 0 0 1 0 2 0 11 2 18 11 17 22l0 1 0 0c-1 10-11 18-22 17z m-221 5c5 0 10 2 14 5 4 4 6 9 6 14 0 5-2 10-6 14-4 4-9 6-14 6s-10-2-14-6c-3-4-5-9-5-14 0-5 2-10 5-14 4-3 9-5 14-5z" horiz-adv-x="1000" />

<glyph glyph-name="cow" unicode="&#xe80f;" d="M708 469c-11 0-20-9-20-20 0-12 9-21 20-21 12 0 21 9 21 21 0 11-9 20-21 20z m221-154c-26 39-52 75-63 90 1 10 2 28 0 52-2 19-21 69-45 120 41 14 73 34 97 59 17 19 30 41 36 64 5 18 5 31 4 32 0 8-5 15-12 18-8 3-16 1-22-4-1 0-65-57-156-67-1 0-2 0-3 0-5 6-9 12-13 17-23 30-44 44-64 44-30 0-58-19-85-58-3 0-5-1-8-1-18-5-33-16-43-31-1-3-3-5-4-8-100 31-339 100-490 100-14 0-27-1-39-2-6 0-11-3-15-8-3-4-5-10-4-16l125-750c2-7 6-13 13-16 3-1 5-1 8-1 4 0 9 1 12 4l232 175c-4-20-9-34-12-40-4-5-4-12-2-18 3-7 8-11 15-13 2 0 16-3 46-4v0c0-12 10-21 21-21 12 0 21 9 21 21v0c31 1 44 4 46 4 7 2 12 6 15 13 3 6 2 13-2 18-4 8-11 29-15 62 81-76 212-83 243-83 19-11 61-35 87-35 27 0 89 15 96 17 6 2 10 5 13 10 2 3 38 66 38 116 0 16-8 46-71 140z m-241 384c3 0 12-6 27-23-2 0-4 0-6 0-22 0-40 1-55 3 12 13 23 20 34 20z m-82-59c0 0 1 1 5 1 6 0 14-1 24-2 18-2 42-5 74-5 20 0 42 1 63 4 52 5 95 23 126 41-3-5-7-10-12-15-61-63-185-77-278-77-20 0-24 17-24 22-2 11 3 26 22 31z m-168-9c14-4 28-8 41-12v-389c-9-3-19-7-29-11-5 0-9-1-12-2v414z m-42-446l-235-178-116 693c4 0 9 0 13 0 76 0 190-19 330-56 3 0 5-1 8-2v-457z m62-91c-13 0-24 1-33 1 5 17 10 41 11 73 0 6 9 10 22 10 13 0 22-4 22-10 2-32 6-56 11-73-8 0-19-1-33-1z m469-7c-26-6-60-13-74-13-11 0-44 15-69 31-6 5-22 19-31 31-6 9-19 11-29 4-9-6-11-18-5-28-17 3-37 6-58 12-68 19-115 51-140 95v387c8-2 15-4 22-6 6-32 32-54 65-54 66 0 124 6 173 18 26-53 42-101 43-111 3-32 0-51 0-51-1-5 1-11 4-15 1-1 34-45 67-95 27-41 43-68 52-86-1-1-3-1-4-2-20-10-33-25-39-42-7-23 1-48 23-75z m21 42c-4 8-5 15-4 21 2 5 7 10 14 14-2-11-5-23-10-35z" horiz-adv-x="1000" />

<glyph glyph-name="layers" unicode="&#xe815;" d="M1000 350c0 21-12 40-31 50l-74 37 74 37c0 0 0 0 0 0 19 10 31 29 31 50 0 21-12 40-31 49l-420 210c-31 16-67 16-98 0l-420-210c-19-9-31-28-31-49 0-21 12-40 31-50l74-37-74-37c-19-10-31-29-31-50s12-40 31-50l74-37-74-37c-19-9-31-28-31-50 0-21 12-40 31-49l420-210c15-8 32-12 49-12 17 0 34 4 49 12l420 210c19 9 31 28 31 49 0 22-12 41-31 50l-74 37 74 37c19 10 31 29 31 50z m-949 165c-4 3-5 7-5 9s1 6 5 8l421 210c9 5 18 7 28 7 10 0 20-2 29-7l420-210c4-2 5-6 5-8s-1-6-5-9l-420-210c-18-9-40-9-57 0l-421 210z m898-330c4-2 5-6 5-9 0-2-1-6-5-8l-420-210c-18-9-40-9-57 0l-421 210c-4 2-5 6-5 8 0 3 1 7 5 9l106 53 294-148c15-7 32-11 49-11 17 0 34 4 49 11l295 148 105-53z m0 157l-420-211c-18-9-40-9-57 0l-421 211c-4 2-5 6-5 8 0 2 1 6 5 9l106 52 294-147c15-8 32-12 49-12 17 0 34 4 49 12l295 147 105-52c4-3 5-7 5-9 0-2-1-6-5-8z" horiz-adv-x="1000" />

<glyph glyph-name="quote" unicode="&#xe816;" d="M696 754h-288c-33 0-54-16-70-46l-292-712c-17-42 4-75 46-75h396c37 0 58 16 70 50l192 712c13 42-8 71-54 71z m667 0h-288c-33 0-54-16-71-46l-291-712c-17-42 4-75 45-75h396c38 0 59 16 71 50l192 712c12 42-9 71-54 71z" horiz-adv-x="1500" />

<glyph glyph-name="search" unicode="&#xe817;" d="M977-12l-286 286c37 58 59 127 59 201 0 207-168 375-375 375s-375-168-375-375 168-375 375-375c74 0 143 22 201 59l286-286c16-15 36-23 57-23 22 0 43 9 58 24 31 31 31 83 0 114z m-602 154c-184 0-333 149-333 333s149 333 333 333 333-149 333-333-149-333-333-333z m572-239c-15-15-41-14-56 0l-280 281c20 16 39 35 56 56l280-281c15-16 15-40 0-56z m-572 864c-78 0-151-31-206-86-55-55-86-128-86-206 0-11 10-21 21-21s21 10 21 21c0 67 26 129 73 177 48 47 110 73 177 73 12 0 21 9 21 21s-9 21-21 21z" horiz-adv-x="1000" />

<glyph glyph-name="quote-2" unicode="&#xe818;" d="M138 448c-52-82-88-168-110-258-2-9-5-24-9-44-3-20-5-40-7-59h293c11 93 33 181 67 264 34 83 74 161 121 233l-186 71c-61-57-117-125-169-207z m676 208c-61-56-117-126-169-207-52-82-89-168-110-258-3-9-5-24-9-44-3-21-6-40-7-59h293c11 93 33 181 67 264 33 82 74 160 121 233l-186 71z" horiz-adv-x="1000" />

<glyph glyph-name="chat-1" unicode="&#xe819;" d="M727 751h-671c-31 0-56-25-56-56v-403c0-31 25-56 56-56h44v-150c0-10 6-18 14-22 3-1 6-2 9-2 7 0 13 3 17 7l167 167h33c13 0 24 10 24 23 0 13-11 24-24 24 0 0-44 0-45 0-5 0-11-3-15-7l-133-133c0 0 0 118 0 119-1 12-11 21-24 21h-67c-5 0-9 4-9 9v403c0 5 4 9 9 9h671c5 0 9-4 9-9v-155c0-13 11-23 24-23s23 10 23 23v155c0 31-25 56-56 56z m217-289h-470c-31 0-56-25-56-56v-274c0-32 25-57 56-57h294l119-119c5-5 11-7 17-7 3 0 6 1 9 2 9 4 15 12 15 22v102h16c31 0 56 25 56 57v274c0 31-25 56-56 56z m9-330c0-6-4-10-9-10h-40c-12 0-23-9-24-21 0-1 0-71 0-71l-85 85c0 0 0 1-1 1 0 0 0 0-1 1-4 3-9 5-15 5h-304c-5 0-9 4-9 10v274c0 5 4 9 9 9h470c5 0 9-4 9-9v-274z m-244 160c-13 0-24-10-24-23 0-13 11-24 24-24 13 0 24 11 24 24 0 13-11 23-24 23z m-103 303c0 0-429 0-429 0-13 0-23-11-23-24s10-23 23-23h429c13 0 24 10 24 23s-11 24-24 24z m-266-156h-163c-13 0-23-11-23-24 0-13 10-23 23-23h163c13 0 24 10 24 23s-11 24-24 24z m259-147c-13 0-23-10-23-23 0-13 10-24 23-24 13 0 24 11 24 24 0 13-11 23-24 23z m220 0c-13 0-24-10-24-23 0-13 11-24 24-24 13 0 23 11 23 24 0 13-10 23-23 23z" horiz-adv-x="1000" />

<glyph glyph-name="box" unicode="&#xe81a;" d="M960 629l-454 220c-4 2-8 2-12 0l-454-220c-5-2-9-7-9-13v-532c0-6 4-11 9-13l454-220c2-1 4-1 6-1s4 0 6 1l454 220c6 2 9 7 9 13v532c0 6-3 11-9 13z m-460 190l420-203-121-59c-1 1-2 2-3 2l-417 201 121 59z m-155-75l420-203-86-41-419 202 85 42z m430-230v-154l-80-39v154l80 39z m164-421l-424-205v500l101 49c7 3 10 12 7 19-4 8-12 11-20 7l-103-50-41 20c-7 3-16 0-19-7-4-7-1-16 7-19l38-19v-500l-424 205v500l323-156c2-1 4-2 6-2 6 0 11 3 14 9 3 7 0 16-7 19l-317 153 145 70 440-212c0 0 0 0 0 0v-176c0-5 3-10 7-12 3-2 5-3 8-3 2 0 4 1 6 2l110 53c5 2 8 7 8 13v177l135 65v-500z m-757 57l-67 32c-7 4-16 1-20-7-3-7 0-16 7-19l67-32c2-1 4-2 6-2 6 0 11 3 13 8 4 8 1 16-6 20z m61 40l-128 62c-7 3-16 0-20-7-3-8 0-16 7-20l128-62c2-1 4-1 6-1 6 0 11 3 14 8 3 8 0 16-7 20z" horiz-adv-x="1000" />

<glyph glyph-name="chemical" unicode="&#xe81b;" d="M303 514l17 29 29-16-17-29z m0 0m-90-158l74 131 29-17-74-130z m0 0m-104-376h275v34h-275c-27 0-52 14-65 38-14 23-14 52-1 75l88 154h248v34h-229l148 258c2 3 3 6 3 9v234h133v-234c0-3 1-6 2-9l73-127 29 17-70 123v246c0 10-8 17-17 17h-167c-9 0-17-7-17-17v-246l-253-442c-19-34-19-75 1-109 19-34 55-55 94-55z m0 0m584 485c-141-1-264-96-299-233l-94-1c-6 0-12-4-15-10-2-7-1-14 4-19l99-95c27-163 175-276 338-258 164 17 285 160 276 324-9 164-145 292-309 292z m0-585c-137 1-253 101-272 237-1 4-3 7-5 10l-74 71 65 1c8 0 15 5 16 13 30 142 164 237 308 217s247-147 237-292c-10-145-130-257-275-257z m0 0m141 287l-58 29c-5 2-10 2-15 0l-59-30-51 25v63l51 25 59-30 15 30-58 29v57h-33v-57l-58-29c-5-2-9-8-9-15v-73l-49-24-42 28-18-28 42-28v-66l-42-28 18-28 42 28 58-29c5-3 10-3 15 0l60 29 59-29 15 30-58 28v63l50 25 50-25v-56h34v58l42 28-18 28z m-199-118l-50 25v63l50 25 50-25v-63z m0 0m-167 182h33v-33h-33z m0 0m434-17h33v-33h-33z m0 0m-284-234h33v-33h-33z m0 0m134 0h33v-33h-33z m0 0m-201 351h34v-33h-34z m0 0m267 0h34v-33h-34z m0 0m-584-250h33v-34h-33z m0 0m-117 67h33v-34h-33z m0 0m83 83h34v-33h-34z m0 0" horiz-adv-x="1000" />

<glyph glyph-name="microscope" unicode="&#xe81c;" d="M402 82h33v-33h-33z m0 0m425 636c5 3 8 7 9 12 1 6-1 11-5 15l-100 100c-4 4-9 6-14 5-6-1-10-4-13-9l-32-64-53-54-22 22c-6 7-17 7-23 0l-318-317c-8-9-15-18-20-29h-68c-9 0-17-7-17-16v-67c0-9 8-17 17-17h43l-21-22c-7-6-7-17 0-23l50-50c6-7 17-7 23 0l22 21v-26c0-9 7-17 17-17h66c10 0 17 8 17 17v51c11 5 20 12 29 21l110 109c53-28 84-86 77-147-6-60-48-111-106-128l-10 12c-28 36-79 42-115 15h-235c-10 0-17-7-17-17v-66c0-10 7-17 17-17h200v-50h-284c-5 0-11-3-14-8l-33-50c-2-3-3-6-3-9v-50c0-10 8-17 17-17h651c9 0 17 7 17 17v50c0 3-1 6-3 9l-33 50c-1 1-2 3-4 4 86 61 138 159 140 265 2 105-46 206-130 270l75 75c7 6 7 17 0 23l-22 22 53 53z m-103 87l67-67-35-18-50 50z m-444-511c-26 26-30 66-10 97l107-107c-31-20-71-16-97 10z m-95 72h40c-1-11-1-22 0-34h-40z m67-127l-27 27 19 19c8-10 17-19 27-27z m100-23h-34v23c11-1 23-1 34 0z m-201-117h191c-4-11-7-22-7-34h-184z m217-35c0 22 14 41 35 48 20 8 43 1 56-16l92-114h-183z m284-154v-29h-618v29l26 38h567z m101 339c0-112-62-214-161-266l-75 94c66 25 111 85 118 154 7 70-27 137-87 174l84 84c76-57 120-146 121-240z m-351 57l-110 110 294 294 110-110z m284 351l-43 43 43 43 43-43z m0 0m-139-39l27 27 23-24-26-26z m0 0m-157-157l132 132 24-23-132-132z m0 0" horiz-adv-x="1000" />

<glyph glyph-name="temperature" unicode="&#xe81d;" d="M770 523h-85c-8 0-15-7-15-15s7-14 15-14h85c8 0 15 6 15 14s-7 15-15 15z m0 0m-85 89h39c8 0 14 7 14 15 0 8-6 15-14 15h-39c-8 0-15-7-15-15 0-8 7-15 15-15z m0 0m0 119h52c8 0 15 7 15 15 0 8-7 14-15 14h-52c-8 0-15-6-15-14 0-8 7-15 15-15z m0 0m52-445h-52c-8 0-15-7-15-15 0-8 7-15 15-15h52c8 0 15 7 15 15 0 8-7 15-15 15z m0 0m-52 89h39c8 0 14 7 14 15 0 8-6 14-14 14h-39c-8 0-15-6-15-14 0-8 7-15 15-15z m0 0m-437 157c25-13 26-16 32-16 16 0 21 20 8 28l-25 14 18 7c7 3 11 12 8 19-3 8-12 11-19 8l-40-16-52 29 52 30c41-17 40-18 45-18 16 0 21 22 6 28l-18 8 25 14c7 4 9 13 5 20-4 7-13 9-20 5l-25-14 3 20c2 8-4 16-12 17-8 1-15-4-16-12l-7-43-54-30v61l34 27c6 5 7 15 2 21-5 6-14 7-20 2l-16-12v29c0 8-6 14-14 14-9 0-15-6-15-14v-29l-16 12c-6 5-15 4-20-2-5-6-4-16 2-21l34-27v-61l-53 30-7 43c-2 8-9 13-17 12-8-1-14-9-12-17l3-20-25 14c-7 4-16 2-20-5-4-7-2-16 6-20l25-14-19-8c-7-3-11-11-8-19 3-7 12-11 19-8l40 17 53-30-53-29-40 16c-7 3-16 0-19-8-3-7 1-16 8-19l19-7-25-14c-14-8-8-28 7-28 6 0 8 3 32 16l-3-20c-2-8 5-17 14-17 7 0 13 6 15 13l7 42 53 30v-61l-34-27c-6-5-7-14-2-20 5-7 14-8 20-3l16 13v-29c0-8 6-15 15-15 8 0 14 7 14 15v29c14-10 17-16 25-16 14 0 20 18 9 26l-34 27v61l54-30 7-42c1-7 7-13 14-13 9 0 16 9 14 17z m0 0m373-287v473c0 73-59 132-132 132s-133-59-133-132v-473c-54-41-87-106-87-175 0-122 99-220 220-220s220 98 220 220c0 69-33 134-88 175z m-132-366c-105 0-190 86-190 191 0 62 30 120 81 156 3 2 6 7 6 12v480c0 56 46 103 103 103 57 0 103-47 103-103v-480c0-5 2-10 6-12 51-36 81-94 81-156 0-105-85-191-190-191z m0 0m64 337v502c0 35-29 64-64 64s-64-29-64-64v-46c0-8 6-14 14-14 9 0 15 6 15 14v46c0 19 16 34 35 34s35-15 35-34v-435h-70v330c0 9-6 15-15 15-8 0-14-6-14-15v-397c-56-25-92-81-92-143 0-86 70-156 156-156 86 0 156 70 156 156 0 62-36 118-92 143z m-64-270c-70 0-127 57-127 127 0 53 33 101 83 119 5 3 9 8 9 14v48h70v-48c0-6 4-11 9-14 50-18 83-66 83-119 0-70-57-127-127-127z m0 0" horiz-adv-x="1000" />

<glyph glyph-name="phone-call" unicode="&#xe81e;" d="M861 106l-119 93c-34 26-81 26-114-1l-26-21c-20-15-49-14-67 4l-213 213c-18 19-20 47-4 68l21 26c26 33 26 80 0 114l-92 119c-16 21-41 34-67 35-26 2-52-8-71-27l-76-76c-42-42-103-177 240-521 223-224 360-271 435-271 45 0 71 17 85 31l76 76c36 36 36 94 0 131-3 2-6 5-8 7z m-17-105c-2-2-3-3-4-5l-76-76c-9-8-25-18-57-18-54 0-180 33-405 259-259 259-291 411-239 462l76 76c9 10 22 15 35 15 1 0 2 0 3 0 15-1 28-8 37-19l92-119c15-19 15-45 0-63l-21-26c-29-37-25-89 8-123l212-213c33-33 86-36 122-7l27 21c18 14 44 14 62 0l119-93c22-17 26-49 9-71z m64 838h-355c-51 0-95-42-95-91v-212c0-50 44-92 95-92h10v-84c0-11 9-21 20-21 6 0 11 3 15 6l106 99h204c51 0 92 41 92 92v212c0 50-41 91-92 91z m50-303h0c0-28-23-51-50-51h-213c-5 0-10-2-14-6l-77-71v56c0 12-9 21-21 21h-30c-27 0-53 24-53 51v212c0 26 25 49 53 49h355c28 0 50-22 50-49v-212z m-113 124c-7 3-16 1-22-5-8-8-8-21 0-29 6-6 15-8 22-5 3 1 5 3 7 5 4 4 6 9 6 15 0 5-2 10-6 14-2 2-4 4-7 5z m-106 0c-8 3-17 1-23-5-8-8-8-20 0-28 0-1 0-1 0-1 2-2 4-4 7-5 8-3 17-1 23 5 4 4 6 9 6 15 0 5-2 10-6 14-2 2-5 4-7 5z m-106 0c-11 4-23-1-28-11-1-3-1-6-1-8 0-6 2-11 6-15 4-4 9-6 14-6 3 0 6 0 9 1 2 1 4 3 6 5 4 4 6 9 6 15 0 5-2 10-6 14-2 2-4 4-6 5z" horiz-adv-x="1000" />

<glyph glyph-name="price" unicode="&#xe81f;" d="M920 624c0 1 0 1 0 1 0 1 0 1 0 1 0 0-1 1-1 1s0 1 0 1c0 0 0 0-1 1 0 0 0 0 0 1 0 0 0 0 0 0-1 1-1 1-1 2 0 0 0 0-1 0 0 1 0 1 0 1l-169 209c0 1-1 1-1 2-1 0-1 0-1 0 0 1-1 1-1 2 0 0-1 0-1 0 0 0-1 1-1 1 0 0 0 0-1 0 0 0 0 1-1 1 0 0 0 0 0 0-1 0-1 1-2 1 0 0 0 0 0 0-1 0-1 0-2 0 0 0 0 1 0 1-1 0-2 0-2 0 0 0-1 0-1 0-1 0-1 0-2 0h-545c-12 0-21-9-21-20v-85h-65c-11 0-20-9-20-20v-855c0-11 9-20 20-20h716c11 0 21 9 21 20v85h63c11 0 20 9 20 20v645c0 1 0 2 0 2 0 1 0 1 0 1 0 1 0 1 0 1z m-169 148l106-131h-106v131z m-35-165l57-69h-105v129l46-56c1-2 1-3 2-4z m-510 202h505v-129l-48 58c0 1-1 1-1 2 0 0 0 0 0 0-1 0-1 1-2 1 0 0 0 0 0 0-1 1-1 1-2 1 0 0 0 0 0 1-1 0-1 0-1 0-1 0-1 0-1 0 0 1-1 1-1 1-1 0-1 0-1 0 0 0-1 0-1 1-1 0-1 0-1 0-1 0-1 0-2 0 0 0 0 0 0 0-1 0-2 0-3 0h-441v64z m-85-918v814h506v-188c0-11 9-20 20-20h149v-606l0 0h-675z m758 104h-42l0 1v521c0 1 0 2 0 2 0 0 0 1 0 1s0 1-1 1c0 0 0 1 0 1 0 1 0 1 0 1 0 1 0 1 0 1s0 1-1 1c0 0 0 0 0 1 0 0 0 0-1 0 0 1 0 1 0 1 0 1 0 1-1 1 0 0 0 1 0 1 0 0-1 1-1 1l-57 70h104v-605z m-211 418h-419c-12 0-21-9-21-21s9-20 21-20h419c11 0 20 9 20 20 0 12-9 21-20 21z m0-125h-419c-12 0-21-9-21-21s9-20 21-20h419c11 0 20 9 20 20s-9 21-20 21z m0-125h-419c-12 0-21-9-21-21s9-20 21-20h419c11 0 20 9 20 20 0 12-9 21-20 21z m0-125h-419c-12 0-21-9-21-21s9-20 21-20h419c11 0 20 9 20 20s-9 21-20 21z" horiz-adv-x="1000" />

<glyph glyph-name="shopping-cart" unicode="&#xe821;" d="M979 600h-767l-47 112c-3 8-11 13-19 13h-125c-12 0-21-9-21-21s9-21 21-21h111l47-112v0l104-250c0 0 0 0 0 0l52-125c3-8 14-13 22-13h497c12 0 21 10 21 21 0 12-9 21-21 21h-486l-35 83h563c11 0 21 10 21 21s-10 21-21 21h-580l-35 83h657c11 0 20 10 20 21s-9 21-20 21h-664c-3 0-6-1-9-2l-36 85h750c12 0 21 10 21 21s-9 21-21 21z m-562-458c-46 0-84-38-84-84s38-83 84-83c46 0 83 37 83 83s-37 84-83 84z m0-125c-23 0-42 18-42 41s19 42 42 42c23 0 41-19 41-42s-18-41-41-41z m333 125c-46 0-83-38-83-84s37-83 83-83c46 0 83 37 83 83s-37 84-83 84z m0-125c-23 0-42 18-42 41s19 42 42 42c23 0 42-19 42-42s-19-41-42-41z" horiz-adv-x="1000" />

<glyph glyph-name="user" unicode="&#xe823;" d="M500 850c-276 0-500-224-500-500 0-158 74-299 188-390 1-1 1-1 2-2 85-67 193-108 310-108 117 0 225 41 310 108 1 1 2 1 2 2 115 91 188 232 188 390 0 276-224 500-500 500z m283-871c-78-60-176-96-283-96-106 0-205 36-283 96v104c0 76 29 147 83 201 28 28 62 49 99 64 29-20 64-31 101-31 38 0 73 11 102 31 109-42 181-147 181-265v-104z m-433 521c0 83 67 150 150 150 83 0 150-67 150-150s-67-150-150-150c-83 0-150 67-150 150z m467-492v75c0 125-74 238-186 289 32 33 52 78 52 128 0 101-82 183-183 183-101 0-183-82-183-183 0-50 20-95 52-128-34-16-66-38-93-65-60-60-93-139-93-224v-75c-92 85-150 207-150 342 0 257 210 467 467 467s467-210 467-467c0-135-58-257-150-342z" horiz-adv-x="1000" />

<glyph glyph-name="visibility" unicode="&#xe824;" d="M996 363c-9 11-224 279-496 279s-486-268-495-279c-7-8-7-18 0-26 9-11 223-279 495-279s487 268 496 279c6 8 6 18 0 26z m-496-263c-219 0-406 197-452 250 46 53 233 250 452 250s406-197 452-250c-46-53-233-250-452-250z m0 458c-115 0-208-93-208-208s93-208 208-208 208 93 208 208-93 208-208 208z m0-375c-92 0-167 75-167 167s75 167 167 167 167-75 167-167-75-167-167-167z m0 292c-69 0-125-56-125-125 0-11 9-21 21-21s21 10 21 21c0 46 37 83 83 83 12 0 21 10 21 21s-9 21-21 21z" horiz-adv-x="1000" />

<glyph glyph-name="wave" unicode="&#xe825;" d="M204 540c20 19 51 19 70 0 53-53 139-53 191 0 10 9 22 15 35 15 13 0 25-6 35-15 53-53 139-53 191 0 10 9 22 15 35 15 13 0 25-6 35-15 25-25 59-39 96-39 36 0 70 14 95 39 17 17 17 45 0 61-17 17-44 17-61 0-9-9-21-14-34-14-14 0-26 5-35 14-26 26-60 40-96 40 0 0 0 0 0 0-36 0-70-14-96-40-19-19-50-19-69 0-26 26-60 40-96 40 0 0 0 0 0 0-36 0-70-14-96-40-19-19-50-19-69 0-53 53-139 53-192 0-19-19-50-19-69 0-17 17-44 17-61 0-17-16-17-44 0-61 53-53 139-53 191 0z m0-221c20 20 51 20 70 0 53-52 139-52 191 0 10 10 22 15 35 15 13 0 25-5 35-15 53-52 139-52 191 0 10 10 22 15 35 15 13 0 25-5 35-15 25-25 59-39 96-39 36 0 70 14 95 39 17 17 17 45 0 62-17 17-44 17-61 0-9-10-21-15-34-15-14 0-26 5-35 15-26 25-60 39-96 39 0 0 0 0 0 0-36 0-70-14-96-39-19-19-50-19-69 0-26 25-60 39-96 39 0 0 0 0 0 0-36 0-70-14-96-39-19-19-50-19-69 0-53 53-139 53-192 0-19-19-50-19-69 0-17 17-44 17-61 0-17-17-17-45 0-62 53-52 139-52 191 0z m722-159c-9-9-21-14-34-14-14 0-26 5-35 14-26 25-60 40-96 40 0 0 0 0 0 0-36 0-70-15-96-40-19-19-50-19-69 0-26 25-60 40-96 40 0 0 0 0 0 0-36 0-70-15-96-40-19-19-50-19-69 0-53 53-139 53-192 0-19-19-50-19-69 0-17 17-44 17-61 0-17-17-17-44 0-61 53-53 139-53 191 0 20 19 51 19 70 0 53-53 139-53 191 0 10 9 22 14 35 14 13 0 25-5 35-14 53-53 139-53 191 0 10 9 22 14 35 14 13 0 25-5 35-14 25-26 59-40 96-40 36 0 70 14 95 40 17 17 17 44 0 61-17 17-44 17-61 0z" horiz-adv-x="1000" />

<glyph glyph-name="chat" unicode="&#xe826;" d="M500 850c-276 0-500-224-500-500 0-91 25-180 73-258l-72-215c-2-7 0-15 5-21 4-4 9-6 15-6 2 0 4 0 6 1l215 71c78-47 167-72 258-72 276 0 500 224 500 500s-224 500-500 500z m0-958c-86 0-171 24-245 71-3 2-7 3-11 3-2 0-4 0-6-1l-184-61 61 184c2 6 1 12-2 17-47 74-71 159-71 245 0 253 205 458 458 458s458-205 458-458-205-458-458-458z m250 541c-46 0-83-37-83-83s37-83 83-83c46 0 83 37 83 83s-37 83-83 83z m0-125c-23 0-42 19-42 42s19 42 42 42c23 0 42-19 42-42s-19-42-42-42z m-250 125c-46 0-83-37-83-83s37-83 83-83 83 37 83 83-37 83-83 83z m0-125c-23 0-42 19-42 42s19 42 42 42 42-19 42-42-19-42-42-42z m-250 125c-46 0-83-37-83-83s37-83 83-83c46 0 83 37 83 83s-37 83-83 83z m0-125c-23 0-42 19-42 42s19 42 42 42c23 0 42-19 42-42s-19-42-42-42z" horiz-adv-x="1000" />
</font>
</defs>
</svg>
